<?xml version="1.0" standalone="no"?>
<!DOCTYPE svg PUBLIC "-//W3C//DTD SVG 1.1//EN" "http://www.w3.org/Graphics/SVG/1.1/DTD/svg11.dtd" >
<svg xmlns="http://www.w3.org/2000/svg">
<metadata></metadata>
<defs>
<font id="joystickregular" horiz-adv-x="950" >
<font-face units-per-em="2048" ascent="1638" descent="-410" />
<missing-glyph horiz-adv-x="500" />
<glyph horiz-adv-x="2048" />
<glyph horiz-adv-x="2048" />
<glyph unicode="&#xd;" horiz-adv-x="508" />
<glyph unicode=" " />
<glyph unicode="!" horiz-adv-x="400" d="M0 125q0 52 36.5 88.5t88.5 36.5t88.5 -36.5t36.5 -88.5t-36.5 -88.5t-88.5 -36.5t-88.5 36.5t-36.5 88.5zM0 400v1000h250v-1000h-250z" />
<glyph unicode="&#x22;" horiz-adv-x="750" d="M0 1025v250q0 52 36.5 88.5t88.5 36.5t88.5 -36.5t36.5 -88.5v-250q0 -52 -36.5 -88.5t-88.5 -36.5t-88.5 36.5t-36.5 88.5zM350 1025v250q0 52 36.5 88.5t88.5 36.5t88.5 -36.5t36.5 -88.5v-250q0 -52 -36.5 -88.5t-88.5 -36.5t-88.5 36.5t-36.5 88.5z" />
<glyph unicode="#" horiz-adv-x="1350" d="M0 325v250h225v250h-225v250h225v225h250v-225h250v225h250v-225h225v-250h-225v-250h225v-250h-225v-225h-250v225h-250v-225h-250v225h-225zM475 575h250v250h-250v-250z" />
<glyph unicode="$" d="M0 425h250q0 -75 50 -112.5t100 -37.5t100 37.5t50 112.5t-50 112.5t-100 37.5q-175 0 -287.5 112.5t-112.5 287.5t113 288q69 69 162 95v42h250v-42q93 -26 163 -95q112 -113 112 -288h-250q0 75 -50 112.5t-100 37.5t-100 -37.5t-50 -112.5t50 -112.5t100 -37.5 q175 0 287.5 -112.5t112.5 -287.5t-112 -287q-69 -69 -163 -96v-42h-250v41q-92 26 -162 97q-113 112 -113 287z" />
<glyph unicode="%" horiz-adv-x="1200" d="M-25 950v50q0 175 112.5 287.5t287.5 112.5q167 0 277 -103l48 103h275l-200 -431v-19q0 -60 -13 -113q101 -25 176 -99q112 -113 112 -288v-50q0 -175 -112.5 -287.5t-295.5 -112.5q-160 0 -269 103l-48 -103h-275l200 431v19q0 60 13 112q-100 25 -175 101 q-113 112 -113 287zM225 950q0 -75 50 -112.5t100 -37.5q25 0 51 10l98 211q-6 59 -49 92q-50 37 -100 37t-100 -37.5t-50 -112.5v-50zM501 379q6 -59 49 -91q50 -38 100 -38t100 37.5t50 112.5v50q0 75 -50 112.5t-100 37.5q-25 0 -51 -10z" />
<glyph unicode="&#x26;" d="M0 425q0 165 101 275q-101 110 -101 275q0 175 113 288q69 69 162 95v42h250v-42q93 -26 163 -95q112 -113 112 -288h-250q0 75 -50 112.5t-100 37.5t-100 -37.5t-50 -112.5t50 -112.5t100 -37.5h150v-250h-150q-50 0 -100 -37.5t-50 -112.5t50 -112.5t100 -37.5 t100 37.5t50 112.5h250q0 -175 -112 -287q-71 -71 -163 -97v-41h-250v42q-94 27 -162 96q-113 112 -113 287z" />
<glyph unicode="'" horiz-adv-x="400" d="M0 1025v250q0 52 36.5 88.5t88.5 36.5t88.5 -36.5t36.5 -88.5v-250q0 -52 -36.5 -88.5t-88.5 -36.5t-88.5 36.5t-36.5 88.5z" />
<glyph unicode="(" horiz-adv-x="550" d="M0 100v1200q0 175 112.5 287.5t287.5 112.5v-250q-50 0 -100 -37.5t-50 -112.5v-1200q0 -75 50 -112.5t100 -37.5v-250q-175 0 -287.5 112.5t-112.5 287.5z" />
<glyph unicode=")" horiz-adv-x="550" d="M0 -50q50 0 100 37.5t50 112.5v1200q0 75 -50 112.5t-100 37.5v250q175 0 287.5 -112.5t112.5 -287.5v-1200q0 -175 -112.5 -287.5t-287.5 -112.5v250z" />
<glyph unicode="*" d="M0 1225v250h181l-131 175h250l100 -133l100 133h250l-131 -175h181v-250h-181l131 -175h-250l-100 133l-100 -133h-250l131 175h-181z" />
<glyph unicode="+" horiz-adv-x="850" d="M0 575v250h225v225h250v-225h225v-250h-225v-225h-250v225h-225z" />
<glyph unicode="," horiz-adv-x="400" d="M0 125q0 52 36.5 88.5t88.5 36.5t88.5 -36.5t36.5 -88.5v-250q0 -52 -36.5 -88.5t-88.5 -36.5t-88.5 36.5t-36.5 88.5v250z" />
<glyph unicode="-" horiz-adv-x="850" d="M0 575v250h700v-250h-700z" />
<glyph unicode="." horiz-adv-x="400" d="M0 125q0 52 36.5 88.5t88.5 36.5t88.5 -36.5t36.5 -88.5t-36.5 -88.5t-88.5 -36.5t-88.5 36.5t-36.5 88.5z" />
<glyph unicode="/" horiz-adv-x="1025" d="M0 0l650 1400h275l-650 -1400h-275z" />
<glyph unicode="0" d="M0 400v600q0 175 112.5 287.5t287.5 112.5t287.5 -112.5t112.5 -287.5v-600q0 -175 -112.5 -287.5t-295.5 -112.5q-167 0 -279.5 112.5t-112.5 287.5zM250 400q0 -75 50 -112.5t100 -37.5t100 37.5t50 112.5v600q0 75 -50 112.5t-100 37.5t-100 -37.5t-50 -112.5v-600z " />
<glyph unicode="1" horiz-adv-x="550" d="M0 1150v250h225q83 0 129 -50t46 -125v-1225h-250v1150h-150z" />
<glyph unicode="2" d="M0 175v250q0 175 112.5 287.5t287.5 112.5q50 0 100 37.5t50 112.5v25q0 75 -50 112.5t-100 37.5t-100 -37.5t-50 -112.5h-250q0 175 112.5 287.5t287.5 112.5t287.5 -112.5t112.5 -287.5v-25q0 -175 -112.5 -287.5t-287.5 -112.5q-50 0 -100 -37.5t-50 -112.5v-175h550 v-250h-625q-75 0 -125 50t-50 125z" />
<glyph unicode="3" d="M0 400h250q0 -75 50 -112.5t100 -37.5t100 37.5t50 112.5v25q0 75 -50 112.5t-100 37.5h-150v250h150q50 0 100 37.5t50 112.5v25q0 75 -50 112.5t-100 37.5t-100 -37.5t-50 -112.5h-250q0 175 112.5 287.5t287.5 112.5t287.5 -112.5t112.5 -287.5v-25q0 -165 -101 -275 q101 -110 101 -275v-25q0 -175 -112.5 -287.5t-295.5 -112.5q-167 0 -279.5 112.5t-112.5 287.5z" />
<glyph unicode="4" horiz-adv-x="1075" d="M0 375q0 25 50 125l500 900h275v-900h100v-250h-100v-250h-250v250h-449q-51 1 -88 25.5t-38 99.5zM350 500h225v426z" />
<glyph unicode="5" d="M0 400h250q0 -75 50 -112.5t100 -37.5t100 37.5t50 112.5v100q0 75 -50 112.5t-100 37.5h-400v575q0 75 50 125t125 50h525v-250h-450v-250h150q175 0 287.5 -112.5t112.5 -287.5v-100q0 -175 -112.5 -287.5t-295.5 -112.5q-167 0 -279.5 112.5t-112.5 287.5z" />
<glyph unicode="6" d="M0 400v600q0 175 112.5 287.5t287.5 112.5t287.5 -112.5t112.5 -287.5h-250q0 75 -50 112.5t-100 37.5t-100 -37.5t-50 -112.5v-125q68 25 150 25q175 0 287.5 -112.5t112.5 -287.5v-100q0 -175 -112.5 -287.5t-295.5 -112.5q-167 0 -279.5 112.5t-112.5 287.5zM250 400 q0 -75 50 -112.5t100 -37.5t100 37.5t50 112.5v100q0 75 -50 112.5t-100 37.5t-100 -37q-50 -38 -50 -113v-100z" />
<glyph unicode="7" horiz-adv-x="1025" d="M0 1150v250h750q50 0 87.5 -25t37.5 -99q0 -26 -51 -151l-474 -1125h-300l500 1150h-550z" />
<glyph unicode="8" d="M0 400v25q0 165 101 275q-101 110 -101 275v25q0 175 112.5 287.5t287.5 112.5t287.5 -112.5t112.5 -287.5v-25q0 -165 -101 -275q101 -110 101 -275v-25q0 -175 -112.5 -287.5t-295.5 -112.5q-167 0 -279.5 112.5t-112.5 287.5zM250 400q0 -75 50 -112.5t100 -37.5 t100 37.5t50 112.5v25q0 75 -50 112.5t-100 37.5t-100 -37.5t-50 -112.5v-25zM250 975q0 -75 50 -112.5t100 -37.5t100 37.5t50 112.5v25q0 75 -50 112.5t-100 37.5t-100 -37.5t-50 -112.5v-25z" />
<glyph unicode="9" d="M0 400h250q0 -75 50 -112.5t100 -37.5t100 37.5t50 112.5v125q-68 -25 -150 -25q-175 0 -287.5 112.5t-112.5 287.5v100q0 175 112.5 287.5t295.5 112.5q167 0 279.5 -112.5t112.5 -287.5v-600q0 -175 -112.5 -287.5t-287.5 -112.5t-287.5 112.5t-112.5 287.5zM250 900 q0 -75 50 -112.5t100 -37.5t100 37q50 38 50 113v100q0 75 -50 112.5t-100 37.5t-100 -37.5t-50 -112.5v-100z" />
<glyph unicode=":" horiz-adv-x="400" d="M0 125q0 52 36.5 88.5t88.5 36.5t88.5 -36.5t36.5 -88.5t-36.5 -88.5t-88.5 -36.5t-88.5 36.5t-36.5 88.5zM0 700q0 52 36.5 88.5t88.5 36.5t88.5 -36.5t36.5 -88.5t-36.5 -88.5t-88.5 -36.5t-88.5 36.5t-36.5 88.5z" />
<glyph unicode=";" horiz-adv-x="400" d="M0 125q0 52 36.5 88.5t88.5 36.5t88.5 -36.5t36.5 -88.5v-250q0 -52 -36.5 -88.5t-88.5 -36.5t-88.5 36.5t-36.5 88.5v250zM0 700q0 52 36.5 88.5t88.5 36.5t88.5 -36.5t36.5 -88.5t-36.5 -88.5t-88.5 -36.5t-88.5 36.5t-36.5 88.5z" />
<glyph unicode="&#x3c;" horiz-adv-x="850" d="M0 550v300l700 275v-250l-445 -175l445 -175v-250z" />
<glyph unicode="=" horiz-adv-x="850" d="M0 325v250h700v-250h-700zM0 825v250h700v-250h-700z" />
<glyph unicode="&#x3e;" horiz-adv-x="850" d="M0 275v250l445 175l-445 175v250l700 -275v-300z" />
<glyph unicode="?" d="M0 1000q0 175 112.5 287.5t287.5 112.5t287.5 -112.5t112.5 -287.5v-25q0 -175 -112.5 -287.5t-212.5 -112.5v-175h-250v250q0 75 50 125t125 50q50 0 100 37.5t50 112.5v25q0 75 -50 112.5t-100 37.5t-100 -37.5t-50 -112.5h-250zM225 125q0 52 36.5 88.5t88.5 36.5 t88.5 -36.5t36.5 -88.5t-36.5 -88.5t-88.5 -36.5t-88.5 36.5t-36.5 88.5z" />
<glyph unicode="@" d="M0 400v600q0 175 112.5 287.5t287.5 112.5t287.5 -112.5t112.5 -287.5v-200q0 -175 -112 -287q-111 -111 -288 -113v250q50 0 100 37.5t50 112.5v200q0 75 -50 112.5t-100 37.5t-100 -37.5t-50 -112.5v-600q0 -75 50 -112.5t100 -37.5h300v-250h-308q-167 0 -279.5 112.5 t-112.5 287.5z" />
<glyph unicode="A" horiz-adv-x="1200" d="M0 0l325 1225q75 175 200 175t200 -175l325 -1225h-275l-78 300h-344l-78 -300h-275zM418 550h214l-107 413z" />
<glyph unicode="B" horiz-adv-x="1050" d="M0 0v1225q0 80 50 127.5t125 47.5h225q425 0 425 -325q0 -202 -108 -307q38 -23 71 -55q112 -113 112 -288v-25q0 -175 -112.5 -287.5t-295.5 -112.5h-492zM250 250h250q50 0 100 37.5t50 112.5v25q0 75 -50 112.5t-100 37.5h-250v-325zM250 825q350 25 350 175t-150 150 h-200v-325z" />
<glyph unicode="C" d="M0 400v600q0 175 112.5 287.5t287.5 112.5t287.5 -112.5t112.5 -287.5h-250q0 75 -50 112.5t-100 37.5t-100 -37.5t-50 -112.5v-600q0 -75 50 -112.5t100 -37.5t100 37.5t50 112.5h250q0 -175 -112.5 -287.5t-295.5 -112.5q-167 0 -279.5 112.5t-112.5 287.5z" />
<glyph unicode="D" d="M0 0v1400h400q175 0 287.5 -112.5t112.5 -287.5v-600q0 -175 -112.5 -287.5t-295.5 -112.5h-392zM250 250h150q50 0 100 37.5t50 112.5v600q0 75 -50 112.5t-100 37.5h-150v-900z" />
<glyph unicode="E" horiz-adv-x="850" d="M0 175v1050q0 75 50 125t125 50h525v-250h-450v-325h275v-250h-275v-325h450v-250h-525q-75 0 -125 50t-50 125z" />
<glyph unicode="F" horiz-adv-x="850" d="M0 0v1225q0 75 50 125t125 50h525v-250h-450v-325h275v-250h-275v-575h-250z" />
<glyph unicode="G" d="M0 400v600q0 175 112.5 287.5t287.5 112.5t287.5 -112.5t112.5 -287.5h-250q0 75 -50 112.5t-100 37.5t-100 -37.5t-50 -112.5v-600q0 -75 50 -112.5t100 -37.5t100 37.5t50 112.5v175h-150v250h225q75 0 125 -50t50 -125v-650h-250v25q-71 -25 -158 -25 q-167 0 -279.5 112.5t-112.5 287.5z" />
<glyph unicode="H" d="M0 0v1400h250v-575h300v575h250v-1400h-250v575h-300v-575h-250z" />
<glyph unicode="I" horiz-adv-x="400" d="M0 0v1400h250v-1400h-250z" />
<glyph unicode="J" d="M0 399l1 152h249v-152q0 -75 50 -112.5t100 -37.5t100 37.5t50 112.5v1001h250v-1001q0 -175 -112.5 -287.5t-295.5 -112.5q-167 0 -279.5 112.5t-112.5 287.5z" />
<glyph unicode="K" d="M0 0v1400h250v-671l125 306l150 365h275l-287 -700l287 -700h-275l-150 365l-125 306v-671h-250z" />
<glyph unicode="L" horiz-adv-x="850" d="M0 175v1225h250v-1150h450v-250h-525q-83 0 -129 50t-46 125z" />
<glyph unicode="M" horiz-adv-x="1300" d="M0 0v1200q0 100 50 150t125 50q150 0 200 -200l200 -762l200 762q50 200 200 200q75 0 125 -50t50 -150v-1200h-250v646l-125 -471q-75 -175 -200 -175t-200 175l-125 471v-646h-250z" />
<glyph unicode="N" horiz-adv-x="1075" d="M0 0v1200q0 100 37 150t113 50q125 0 225 -226l300 -636v862h250v-1200q0 -100 -34.5 -150t-114.5 -50q-126 0 -201 150l-325 712v-862h-250z" />
<glyph unicode="O" d="M0 400v600q0 175 112.5 287.5t287.5 112.5t287.5 -112.5t112.5 -287.5v-600q0 -175 -112.5 -287.5t-295.5 -112.5q-167 0 -279.5 112.5t-112.5 287.5zM250 400q0 -75 50 -112.5t100 -37.5t100 37.5t50 112.5v600q0 75 -50 112.5t-100 37.5t-100 -37.5t-50 -112.5v-600z " />
<glyph unicode="P" horiz-adv-x="975" d="M0 0v1225q0 80 50 127.5t125 47.5h225q425 0 425 -375q0 -350 -575 -450v-575h-250zM250 825q350 25 350 175t-150 150h-200v-325z" />
<glyph unicode="Q" d="M0 400v600q0 175 112.5 287.5t287.5 112.5t287.5 -112.5t112.5 -287.5v-600q0 -136 -68 -234l68 -166h-275l-6 16q-59 -16 -127 -16q-167 0 -279.5 112.5t-112.5 287.5zM250 400q0 -75 50 -112.5t100 -37.5q11 0 22 2l-47 113l-125 306v-271zM250 700h263l37 -90v390 q0 75 -50 112.5t-100 37.5t-100 -37.5t-50 -112.5v-300z" />
<glyph unicode="R" horiz-adv-x="975" d="M0 0v1225q0 80 50 127.5t125 47.5h225q425 0 425 -375q0 -231 -250 -353l275 -672h-275l-225 550q-50 100 -50 175t125 125q175 44 175 150q0 150 -150 150h-200v-1150h-250z" />
<glyph unicode="S" d="M0 400h250q0 -75 50 -112.5t100 -37.5t100 37.5t50 112.5v25q0 75 -50 112.5t-100 37.5q-175 0 -287.5 112.5t-112.5 287.5v25q0 175 112.5 287.5t287.5 112.5t287.5 -112.5t112.5 -287.5h-250q0 75 -50 112.5t-100 37.5t-100 -37.5t-50 -112.5v-25q0 -75 50 -112.5 t100 -37.5q175 0 287.5 -112.5t112.5 -287.5v-25q0 -175 -112.5 -287.5t-295.5 -112.5q-167 0 -279.5 112.5t-112.5 287.5z" />
<glyph unicode="T" d="M0 1150v250h800v-250h-275v-1150h-250v1150h-275z" />
<glyph unicode="U" d="M0 400l1 1000h249v-1000q0 -75 50 -112.5t100 -37.5t100 37.5t50 112.5v999l250 2v-1001q0 -175 -112.5 -287.5t-295.5 -112.5q-167 0 -279.5 112.5t-112.5 287.5z" />
<glyph unicode="V" horiz-adv-x="1200" d="M0 1400h275l250 -962l250 962h275l-325 -1225q-75 -175 -200 -175t-200 175z" />
<glyph unicode="W" horiz-adv-x="1550" d="M0 1400h250l175 -924l124 724q26 200 151 200t150 -200l125 -724l175 924h250l-225 -1225q-75 -175 -200 -175t-200 175l-75 408l-75 -408q-75 -175 -200 -175t-200 175z" />
<glyph unicode="X" d="M-25 0l288 700l-288 700h275l150 -365l150 365h275l-287 -700l287 -700h-275l-150 365l-150 -365h-275z" />
<glyph unicode="Y" d="M-25 1400h275l150 -365l150 365h275l-287 -700l-13 -32v-668h-250v671l-12 29z" />
<glyph unicode="Z" horiz-adv-x="1025" d="M0 125q0 25 50 125l500 900h-550v250h751q50 0 87 -25t37 -99q0 -26 -50 -126l-475 -900h525v-250h-749q-51 1 -88 25.5t-38 99.5z" />
<glyph unicode="[" horiz-adv-x="550" d="M0 -125v1650q0 75 50 125t125 50h225v-250h-150v-1500h150v-250h-225q-75 0 -125 50t-50 125z" />
<glyph unicode="\" horiz-adv-x="1025" d="M0 1400h275l650 -1400h-275z" />
<glyph unicode="]" horiz-adv-x="550" d="M0 -50h150v1500h-150v250h225q75 0 125 -50t50 -125v-1650q0 -75 -50 -125t-125 -50h-225v250z" />
<glyph unicode="^" horiz-adv-x="900" d="M0 1450l250 400h250l250 -400h-250l-125 200l-125 -200h-250z" />
<glyph unicode="_" horiz-adv-x="850" d="M0 -50h700v-250h-700v250z" />
<glyph unicode="`" horiz-adv-x="900" d="M0 1850h300l450 -400h-300z" />
<glyph unicode="a" horiz-adv-x="1020" d="M0 0l276 1041q64 149 170 149q107 0 170 -149l277 -1041h-234l-66 255h-293l-66 -255h-234zM355 468h182l-91 351z" />
<glyph unicode="b" horiz-adv-x="893" d="M0 0v1041q0 68 42.5 108.5t106.5 40.5h191q361 0 361 -276q0 -172 -92 -261q33 -20 60 -47q96 -96 96 -245v-21q0 -149 -95.5 -244.5t-251.5 -95.5h-418zM213 213h212q43 0 85.5 31.5t42.5 95.5v21q0 64 -42.5 96t-85.5 32h-212v-276zM213 701q297 22 297 149 q0 128 -127 128h-170v-277z" />
<glyph unicode="c" horiz-adv-x="808" d="M0 340v510q0 149 95.5 244.5t244.5 95.5t244.5 -95.5t95.5 -244.5h-212q0 64 -42.5 96t-85.5 32q-42 0 -84.5 -32t-42.5 -96v-510q0 -64 42.5 -95.5t84.5 -31.5q43 0 85.5 31.5t42.5 95.5h212q0 -149 -95.5 -244.5t-251.5 -95.5q-142 0 -237.5 95.5t-95.5 244.5z" />
<glyph unicode="d" horiz-adv-x="808" d="M0 0v1190h340q149 0 244.5 -95.5t95.5 -244.5v-510q0 -149 -95.5 -244.5t-251.5 -95.5h-333zM213 213h127q43 0 85.5 31.5t42.5 95.5v510q0 64 -42.5 96t-85.5 32h-127v-765z" />
<glyph unicode="e" horiz-adv-x="723" d="M0 149v892q0 64 42.5 106.5t106.5 42.5h446v-212h-382v-277h233v-212h-233v-276h382v-213h-446q-64 0 -106.5 42.5t-42.5 106.5z" />
<glyph unicode="f" horiz-adv-x="723" d="M0 0v1041q0 64 42.5 106.5t106.5 42.5h446v-212h-382v-277h233v-212h-233v-489h-213z" />
<glyph unicode="g" horiz-adv-x="808" d="M0 340v510q0 149 95.5 244.5t244.5 95.5t244.5 -95.5t95.5 -244.5h-212q0 64 -42.5 96t-85.5 32q-42 0 -84.5 -32t-42.5 -96v-510q0 -64 42.5 -95.5t84.5 -31.5q43 0 85.5 31.5t42.5 95.5v149h-128v212h191q64 0 106.5 -42.5t42.5 -105.5v-553h-212v22q-61 -22 -135 -22 q-142 0 -237.5 95.5t-95.5 244.5z" />
<glyph unicode="h" horiz-adv-x="808" d="M0 0v1190h213v-489h255v489h212v-1190h-212v489h-255v-489h-213z" />
<glyph unicode="i" horiz-adv-x="340" d="M0 0v1190h213v-1190h-213z" />
<glyph unicode="j" horiz-adv-x="808" d="M0 339v129l212 1l1 -130q0 -64 42.5 -95.5t84.5 -31.5q43 0 85.5 31.5t42.5 95.5v851h212v-851q0 -149 -95.5 -244.5t-251.5 -95.5q-142 0 -237.5 95.5t-95.5 244.5z" />
<glyph unicode="k" horiz-adv-x="808" d="M0 0v1190h213v-570l106 260l127 310h234l-244 -595l244 -595h-234l-127 310l-106 260v-570h-213z" />
<glyph unicode="l" horiz-adv-x="723" d="M0 149v1041h213v-977h382v-213h-446q-71 0 -110 42.5t-39 106.5z" />
<glyph unicode="m" horiz-adv-x="1105" d="M0 0v1020q0 85 42.5 127.5t106.5 42.5q127 0 170 -170l170 -648l170 648q42 170 169 170q65 0 107.5 -42.5t42.5 -127.5v-1020h-213v549l-106 -400q-64 -149 -170 -149t-170 149l-106 400v-549h-213z" />
<glyph unicode="n" horiz-adv-x="914" d="M0 0v1020q0 85 31.5 127.5t95.5 42.5q107 0 192 -192l255 -540v732h212v-1020q0 -85 -29 -127.5t-98 -42.5q-106 0 -170 127l-276 605v-732h-213z" />
<glyph unicode="o" horiz-adv-x="808" d="M0 340v510q0 149 95.5 244.5t244.5 95.5t244.5 -95.5t95.5 -244.5v-510q0 -149 -95.5 -244.5t-251.5 -95.5q-142 0 -237.5 95.5t-95.5 244.5zM213 340q0 -64 42.5 -95.5t84.5 -31.5q43 0 85.5 31.5t42.5 95.5v510q0 64 -42.5 96t-85.5 32q-42 0 -84.5 -32t-42.5 -96v-510 z" />
<glyph unicode="p" horiz-adv-x="829" d="M0 0v1041q0 68 42.5 108.5t106.5 40.5h191q361 0 361 -319q0 -297 -488 -382v-489h-213zM213 701q297 22 297 149q0 128 -127 128h-170v-277z" />
<glyph unicode="q" horiz-adv-x="808" d="M0 340v510q0 149 95.5 244.5t244.5 95.5t244.5 -95.5t95.5 -244.5v-510q0 -116 -58 -199l58 -141h-234l-5 13q-50 -13 -108 -13q-142 0 -237.5 95.5t-95.5 244.5zM213 340q0 -64 42.5 -95.5t84.5 -31.5q9 0 18 1l-39 96l-106 260v-230zM213 595h223l32 -77v332 q0 64 -42.5 96t-85.5 32q-42 0 -84.5 -32t-42.5 -96v-255z" />
<glyph unicode="r" horiz-adv-x="829" d="M0 0v1041q0 68 42.5 108.5t106.5 40.5h191q361 0 361 -319q0 -196 -212 -300l234 -571h-234l-191 468q-43 85 -43 148q0 64 106 107q149 37 149 127q0 128 -127 128h-170v-978h-213z" />
<glyph unicode="s" horiz-adv-x="808" d="M0 340h213q0 -64 42.5 -95.5t84.5 -31.5q43 0 85.5 31.5t42.5 95.5v21q0 64 -42.5 96t-85.5 32q-149 0 -244.5 95.5t-95.5 244.5v21q0 149 95.5 244.5t244.5 95.5t244.5 -95.5t95.5 -244.5h-212q0 64 -42.5 96t-85.5 32q-42 0 -84.5 -32t-42.5 -96v-21q0 -64 42.5 -96 t84.5 -32q149 0 244.5 -95.5t95.5 -244.5v-21q0 -149 -95.5 -244.5t-251.5 -95.5q-142 0 -237.5 95.5t-95.5 244.5z" />
<glyph unicode="t" horiz-adv-x="808" d="M0 978v212h680v-212h-234v-978h-212v978h-234z" />
<glyph unicode="u" horiz-adv-x="808" d="M0 340v850h212l1 -850q0 -64 42.5 -95.5t84.5 -31.5q43 0 85.5 31.5t42.5 95.5v849l212 1v-850q0 -149 -95.5 -244.5t-251.5 -95.5q-142 0 -237.5 95.5t-95.5 244.5z" />
<glyph unicode="v" horiz-adv-x="1020" d="M0 1190h234l212 -818l213 818h234l-277 -1041q-63 -149 -170 -149q-106 0 -170 149z" />
<glyph unicode="w" horiz-adv-x="1318" d="M0 1190h213l148 -785l106 615q21 170 128 170q106 0 127 -170l107 -615l149 785h212l-191 -1041q-64 -149 -170 -149t-170 149l-64 347l-64 -347q-63 -149 -170 -149q-106 0 -170 149z" />
<glyph unicode="x" horiz-adv-x="808" d="M-21 0l244 595l-244 595h234l127 -310l128 310h234l-245 -595l245 -595h-234l-128 310l-127 -310h-234z" />
<glyph unicode="y" horiz-adv-x="808" d="M-21 1190h234l127 -310l128 310h234l-244 -595l-11 -27v-568h-213v570l-10 25z" />
<glyph unicode="z" horiz-adv-x="872" d="M0 106q0 22 43 107l425 765h-468v212h638q42 0 74 -21.5t32 -84.5q0 -21 -43 -106l-403 -765h446v-213h-637q-43 0 -74.5 21t-32.5 85z" />
<glyph unicode="{" horiz-adv-x="700" d="M0 575v250q50 0 100 37.5t50 112.5v325q0 175 112.5 287.5t287.5 112.5v-250q-50 0 -100 -37.5t-50 -112.5v-325q0 -165 -101 -275q101 -110 101 -275v-325q0 -75 50 -112.5t100 -37.5v-250q-175 0 -287.5 112.5t-112.5 287.5v325q0 75 -50 112.5t-100 37.5z" />
<glyph unicode="|" horiz-adv-x="400" d="M0 -300v2000h250v-2000h-250z" />
<glyph unicode="}" horiz-adv-x="700" d="M0 -50q50 0 100 37.5t50 112.5v325q0 165 101 275q-101 110 -101 275v325q0 75 -50 112.5t-100 37.5v250q175 0 287.5 -112.5t112.5 -287.5v-325q0 -75 50 -112.5t100 -37.5v-250q-50 0 -100 -37.5t-50 -112.5v-325q0 -175 -112.5 -287.5t-287.5 -112.5v250z" />
<glyph unicode="~" horiz-adv-x="1350" d="M0 1450q0 175 112.5 287.5t287.5 112.5t288 -112q62 -38 112 -38t100 37.5t50 112.5h250q0 -175 -112.5 -287.5t-295.5 -112.5q-167 0 -279 113q-63 37 -113 37t-100 -37.5t-50 -112.5h-250z" />
<glyph unicode="&#xa0;" />
<glyph unicode="&#xa1;" horiz-adv-x="400" d="M0 0v1000h250v-1000h-250zM0 1275q0 52 36.5 88.5t88.5 36.5t88.5 -36.5t36.5 -88.5t-36.5 -88.5t-88.5 -36.5t-88.5 36.5t-36.5 88.5z" />
<glyph unicode="&#xa2;" horiz-adv-x="808" d="M0 361v468q0 149 96 244q59 59 138 82v35h212v-35q79 -23 138 -82q96 -95 96 -244h-212q0 64 -42.5 95.5t-85.5 31.5q-42 0 -84.5 -31.5t-42.5 -95.5v-468q0 -63 42.5 -95t84.5 -32q43 0 85.5 32t42.5 95h212q0 -148 -96 -244q-59 -59 -138 -82v-35h-212v35 q-79 23 -138 82q-96 96 -96 244z" />
<glyph unicode="&#xa3;" horiz-adv-x="1100" d="M0 0v250h150v325h-150v250h150v175q0 175 112.5 287.5t287.5 112.5t287.5 -112.5t112.5 -287.5h-250q0 75 -50 112.5t-100 37.5t-100 -37.5t-50 -112.5v-175h150v-250h-150v-325h550v-250h-950z" />
<glyph unicode="&#xa4;" d="M-25 0l146 354q-4 4 -8 9q-113 112 -113 287v100q0 175 113 288l8 8l-146 354h275l104 -252q22 2 46 2t46 -2l104 252h275l-145 -355q4 -4 8 -7q112 -113 112 -288v-100q0 -175 -112 -287l-8 -8l145 -355h-275l-104 253q-26 -3 -54 -3q-20 0 -39 2l-103 -252h-275z M250 650q0 -75 50 -112.5t100 -37.5t100 37.5t50 112.5v100q0 75 -50 112.5t-100 37.5t-100 -37.5t-50 -112.5v-100z" />
<glyph unicode="&#xa5;" d="M-25 1400h275l150 -365l150 365h275l-246 -600h171v-250h-225v-150h225v-250h-225v-150h-250v150h-225v250h225v150h-225v250h172z" />
<glyph unicode="&#xa6;" horiz-adv-x="400" d="M0 -300v875h250v-875h-250zM0 825v875h250v-875h-250z" />
<glyph unicode="&#xa7;" d="M0 150h250q0 -75 50 -112.5t100 -37.5t100 37.5t50 112.5v125q-71 -25 -158 -25q-167 0 -279.5 112.5t-112.5 287.5v100q0 60 13 112q-13 53 -13 113v275q0 175 112.5 287.5t287.5 112.5t287.5 -112.5t112.5 -287.5h-250q0 75 -50 112.5t-100 37.5t-100 -37.5t-50 -112.5 v-125q68 25 150 25q175 0 287.5 -112.5t112.5 -287.5v-100q0 -60 -13 -112q13 -53 13 -113v-275q0 -175 -112.5 -287.5t-295.5 -112.5q-167 0 -279.5 112.5t-112.5 287.5zM250 650q0 -75 50 -112.5t100 -37.5t100 37.5t50 112.5v100q0 75 -50 112.5t-100 37.5t-100 -37.5 t-50 -112.5v-100z" />
<glyph unicode="&#xa8;" horiz-adv-x="900" d="M0 1625q0 52 36.5 88.5t88.5 36.5t88.5 -36.5t36.5 -88.5t-36.5 -88.5t-88.5 -36.5t-88.5 36.5t-36.5 88.5zM500 1625q0 52 36.5 88.5t88.5 36.5t88.5 -36.5t36.5 -88.5t-36.5 -88.5t-88.5 -36.5t-88.5 36.5t-36.5 88.5z" />
<glyph unicode="&#xa9;" horiz-adv-x="750" d="M0 950q0 186 88 318t212 132t212 -132t88 -318t-88 -318t-212 -132t-212 132t-88 318zM50 950q0 -166 73 -283t177 -117t177 117t73 283t-73 283t-177 117t-177 -117t-73 -283zM100 800v300q0 88 56.5 144t143.5 56q88 0 144 -56t56 -144h-125q0 38 -25 56.5t-50 18.5 t-50 -18.5t-25 -56.5v-300q0 -37 25 -56t50 -19t50 19t25 56h125q0 -87 -56 -143.5t-148 -56.5q-83 0 -139.5 56.5t-56.5 143.5z" />
<glyph unicode="&#xaa;" horiz-adv-x="648" />
<glyph unicode="&#xab;" horiz-adv-x="944" d="M174 479l342 303h14v-37l-205 -266l205 -266v-37h-14zM487 479l342 303h14v-37l-205 -266l205 -266v-37h-14z" />
<glyph unicode="&#xac;" horiz-adv-x="1014" d="M87 667v100h840v-491l-1 -1h-98v392h-741z" />
<glyph unicode="&#xad;" horiz-adv-x="850" d="M0 575v250h700v-250h-700z" />
<glyph unicode="&#xae;" horiz-adv-x="750" d="M0 950q0 186 88 318t212 132t212 -132t88 -318t-88 -318l13 -32h-36q-81 -100 -189 -100t-189 100h-11v15q-6 8 -12 17q-88 132 -88 318zM50 950q0 -137 50 -241v482q-50 -104 -50 -241zM177 600q55 -50 123 -50t123 50h-35l-113 275q-25 50 -25 88q0 37 63 62 q87 22 87 75q0 75 -75 75h-100v-575h-48zM177 1299q5 1 11 1h112q119 0 171 -58q-71 108 -171 108q-68 0 -123 -51zM388 936l101 -248q61 111 61 262q0 133 -47 234q10 -31 10 -71q0 -116 -125 -177z" />
<glyph unicode="&#xaf;" horiz-adv-x="670" />
<glyph unicode="&#xb0;" horiz-adv-x="674" d="M60 1164q0 116 81.5 197t197.5 81q115 0 196 -81.5t81 -196.5q0 -114 -82 -196t-197 -82q-117 0 -197 81t-80 197zM130 1163q0 -87 61 -147t148 -60t147 60t60 147t-60.5 148t-146.5 61t-147.5 -61t-61.5 -148z" />
<glyph unicode="&#xb1;" horiz-adv-x="1014" />
<glyph unicode="&#xb2;" horiz-adv-x="1014" />
<glyph unicode="&#xb3;" horiz-adv-x="1014" />
<glyph unicode="&#xb4;" horiz-adv-x="900" d="M0 1450l450 400h300l-450 -400h-300z" />
<glyph unicode="&#xb5;" horiz-adv-x="760" d="M0 0v480l1 640h199v-800q0 -60 40 -90t80 -30t80 30t40 90v799l200 2v-801q0 -140 -90 -230t-236 -90q-62 0 -114 19v-19h-200z" />
<glyph unicode="&#xb6;" horiz-adv-x="1024" d="M93 1086q0 157 107.5 253t285.5 96h443v-70h-127v-1365h-82v1365h-166v-1365h-84v738q-174 8 -275.5 102.5t-101.5 245.5z" />
<glyph unicode="&#xb7;" horiz-adv-x="400" d="M0 700q0 52 36.5 88.5t88.5 36.5t88.5 -36.5t36.5 -88.5t-36.5 -88.5t-88.5 -36.5t-88.5 36.5t-36.5 88.5z" />
<glyph unicode="&#xb8;" horiz-adv-x="550" d="M0 -200q58 0 108 37.5t50 112.5v200h250v-200q0 -175 -112.5 -287.5t-295.5 -112.5v250z" />
<glyph unicode="&#xb9;" horiz-adv-x="1014" />
<glyph unicode="&#xba;" horiz-adv-x="718" />
<glyph unicode="&#xbb;" horiz-adv-x="944" d="M101 176v37l205 266l-205 266v37h14l342 -303l-342 -303h-14zM414 176v37l205 266l-205 266v37h14l342 -303l-342 -303h-14z" />
<glyph unicode="&#xbc;" horiz-adv-x="1708" />
<glyph unicode="&#xbd;" horiz-adv-x="1964" />
<glyph unicode="&#xbe;" horiz-adv-x="1708" />
<glyph unicode="&#xbf;" d="M0 400v25q0 175 112.5 287.5t212.5 112.5v175h250v-250q0 -75 -50 -125t-125 -50q-50 0 -100 -37.5t-50 -112.5v-25q0 -75 50 -112.5t100 -37.5t100 37.5t50 112.5h250q0 -175 -112.5 -287.5t-287.5 -112.5t-287.5 112.5t-112.5 287.5zM325 1275q0 52 36.5 88.5 t88.5 36.5t88.5 -36.5t36.5 -88.5t-36.5 -88.5t-88.5 -36.5t-88.5 36.5t-36.5 88.5z" />
<glyph unicode="&#xc0;" horiz-adv-x="1200" d="M0 0l325 1225q75 175 200 175t200 -175l325 -1225h-275l-78 300h-344l-78 -300h-275zM125 1850h300l450 -400h-300zM418 550h214l-107 413z" />
<glyph unicode="&#xc1;" horiz-adv-x="1200" d="M0 0l325 1225q75 175 200 175t200 -175l325 -1225h-275l-78 300h-344l-78 -300h-275zM150 1450l450 400h300l-450 -400h-300zM418 550h214l-107 413z" />
<glyph unicode="&#xc2;" horiz-adv-x="1200" d="M0 0l325 1225q75 175 200 175t200 -175l325 -1225h-275l-78 300h-344l-78 -300h-275zM150 1450l250 400h250l250 -400h-250l-125 200l-125 -200h-250zM418 550h214l-107 413z" />
<glyph unicode="&#xc3;" horiz-adv-x="1200" d="M-75 1450q0 175 112.5 287.5t287.5 112.5t288 -112q62 -38 112 -38t100 37.5t50 112.5h250q0 -175 -112.5 -287.5t-295.5 -112.5q-167 0 -279 113q-63 37 -113 37t-100 -37.5t-50 -112.5h-250zM0 0l325 1225q75 175 200 175t200 -175l325 -1225h-275l-78 300h-344 l-78 -300h-275zM418 550h214l-107 413z" />
<glyph unicode="&#xc4;" horiz-adv-x="1200" d="M0 0l325 1225q75 175 200 175t200 -175l325 -1225h-275l-78 300h-344l-78 -300h-275zM150 1625q0 52 36.5 88.5t88.5 36.5t88.5 -36.5t36.5 -88.5t-36.5 -88.5t-88.5 -36.5t-88.5 36.5t-36.5 88.5zM418 550h214l-107 413zM650 1625q0 52 36.5 88.5t88.5 36.5t88.5 -36.5 t36.5 -88.5t-36.5 -88.5t-88.5 -36.5t-88.5 36.5t-36.5 88.5z" />
<glyph unicode="&#xc5;" horiz-adv-x="1200" d="M0 0l325 1225q75 175 200 175t200 -175l325 -1225h-275l-78 300h-344l-78 -300h-275zM400 1625q0 52 36.5 88.5t88.5 36.5t88.5 -36.5t36.5 -88.5t-36.5 -88.5t-88.5 -36.5t-88.5 36.5t-36.5 88.5zM418 550h214l-107 413z" />
<glyph unicode="&#xc6;" horiz-adv-x="1600" d="M0 0l325 1225q75 175 200 175t200 -175l25 -94v94q0 75 50 125t125 50h525v-250h-450v-325h275v-250h-275v-325h450v-250h-675l-78 300h-344l-78 -300h-275zM418 550h214l-107 413z" />
<glyph unicode="&#xc7;" d="M0 400v600q0 175 112.5 287.5t287.5 112.5t287.5 -112.5t112.5 -287.5h-250q0 75 -50 112.5t-100 37.5t-100 -37.5t-50 -112.5v-600q0 -75 50 -112.5t100 -37.5t100 37.5t50 112.5h250q0 -175 -112 -287q-66 -66 -155 -93v-70q0 -175 -112.5 -287.5t-295.5 -112.5l8 250 q50 0 100 37.5t50 112.5v63q-97 26 -170 100q-113 112 -113 287z" />
<glyph unicode="&#xc8;" horiz-adv-x="850" d="M-25 1850h300l450 -400h-300zM0 175v1050q0 75 50 125t125 50h525v-250h-450v-325h275v-250h-275v-325h450v-250h-525q-75 0 -125 50t-50 125z" />
<glyph unicode="&#xc9;" horiz-adv-x="850" d="M-25 1450l450 400h300l-450 -400h-300zM0 175v1050q0 75 50 125t125 50h525v-250h-450v-325h275v-250h-275v-325h450v-250h-525q-75 0 -125 50t-50 125z" />
<glyph unicode="&#xca;" horiz-adv-x="850" d="M-25 1450l250 400h250l250 -400h-250l-125 200l-125 -200h-250zM0 175v1050q0 75 50 125t125 50h525v-250h-450v-325h275v-250h-275v-325h450v-250h-525q-75 0 -125 50t-50 125z" />
<glyph unicode="&#xcb;" horiz-adv-x="850" d="M-25 1625q0 52 36.5 88.5t88.5 36.5t88.5 -36.5t36.5 -88.5t-36.5 -88.5t-88.5 -36.5t-88.5 36.5t-36.5 88.5zM0 175v1050q0 75 50 125t125 50h525v-250h-450v-325h275v-250h-275v-325h450v-250h-525q-75 0 -125 50t-50 125zM475 1625q0 52 36.5 88.5t88.5 36.5 t88.5 -36.5t36.5 -88.5t-36.5 -88.5t-88.5 -36.5t-88.5 36.5t-36.5 88.5z" />
<glyph unicode="&#xcc;" horiz-adv-x="400" d="M-250 1850h300l450 -400h-300zM0 0v1400h250v-1400h-250z" />
<glyph unicode="&#xcd;" horiz-adv-x="400" d="M-250 1450l450 400h300l-450 -400h-300zM0 0v1400h250v-1400h-250z" />
<glyph unicode="&#xce;" horiz-adv-x="400" d="M-250 1450l250 400h250l250 -400h-250l-125 200l-125 -200h-250zM0 0v1400h250v-1400h-250z" />
<glyph unicode="&#xcf;" horiz-adv-x="400" d="M-250 1625q0 52 36.5 88.5t88.5 36.5t88.5 -36.5t36.5 -88.5t-36.5 -88.5t-88.5 -36.5t-88.5 36.5t-36.5 88.5zM0 0v1400h250v-1400h-250zM250 1625q0 52 36.5 88.5t88.5 36.5t88.5 -36.5t36.5 -88.5t-36.5 -88.5t-88.5 -36.5t-88.5 36.5t-36.5 88.5z" />
<glyph unicode="&#xd0;" horiz-adv-x="1100" d="M0 823v250h150v325h400q175 0 287.5 -112.5t112.5 -287.5v-600q0 -175 -112.5 -287.5t-295.5 -112.5h-392v825h-150zM400 248h150q50 0 100 37.5t50 112.5v600q0 75 -50 112.5t-100 37.5h-150v-75h150v-250h-150v-575z" />
<glyph unicode="&#xd1;" horiz-adv-x="1075" d="M-125 1450q0 175 112.5 287.5t287.5 112.5t288 -112q62 -38 112 -38t100 37.5t50 112.5h250q0 -175 -112.5 -287.5t-295.5 -112.5q-167 0 -279 113q-63 37 -113 37t-100 -37.5t-50 -112.5h-250zM0 0v1200q0 100 37 150t113 50q125 0 225 -226l300 -636v862h250v-1200 q0 -100 -34.5 -150t-114.5 -50q-126 0 -201 150l-325 712v-862h-250z" />
<glyph unicode="&#xd2;" d="M0 400v600q0 175 112.5 287.5t287.5 112.5t287.5 -112.5t112.5 -287.5v-600q0 -175 -112.5 -287.5t-295.5 -112.5q-167 0 -279.5 112.5t-112.5 287.5zM25 1850h300l450 -400h-300zM250 400q0 -75 50 -112.5t100 -37.5t100 37.5t50 112.5v600q0 75 -50 112.5t-100 37.5 t-100 -37.5t-50 -112.5v-600z" />
<glyph unicode="&#xd3;" d="M0 400v600q0 175 112.5 287.5t287.5 112.5t287.5 -112.5t112.5 -287.5v-600q0 -175 -112.5 -287.5t-295.5 -112.5q-167 0 -279.5 112.5t-112.5 287.5zM25 1450l450 400h300l-450 -400h-300zM250 400q0 -75 50 -112.5t100 -37.5t100 37.5t50 112.5v600q0 75 -50 112.5 t-100 37.5t-100 -37.5t-50 -112.5v-600z" />
<glyph unicode="&#xd4;" d="M0 400v600q0 175 112.5 287.5t287.5 112.5t287.5 -112.5t112.5 -287.5v-600q0 -175 -112.5 -287.5t-295.5 -112.5q-167 0 -279.5 112.5t-112.5 287.5zM25 1450l250 400h250l250 -400h-250l-125 200l-125 -200h-250zM250 400q0 -75 50 -112.5t100 -37.5t100 37.5t50 112.5 v600q0 75 -50 112.5t-100 37.5t-100 -37.5t-50 -112.5v-600z" />
<glyph unicode="&#xd5;" d="M-200 1450q0 175 112.5 287.5t287.5 112.5t288 -112q62 -38 112 -38t100 37.5t50 112.5h250q0 -175 -112.5 -287.5t-295.5 -112.5q-167 0 -279 113q-63 37 -113 37t-100 -37.5t-50 -112.5h-250zM0 400v600q0 175 112.5 287.5t287.5 112.5t287.5 -112.5t112.5 -287.5v-600 q0 -175 -112.5 -287.5t-295.5 -112.5q-167 0 -279.5 112.5t-112.5 287.5zM250 400q0 -75 50 -112.5t100 -37.5t100 37.5t50 112.5v600q0 75 -50 112.5t-100 37.5t-100 -37.5t-50 -112.5v-600z" />
<glyph unicode="&#xd6;" d="M0 400v600q0 175 112.5 287.5t287.5 112.5t287.5 -112.5t112.5 -287.5v-600q0 -175 -112.5 -287.5t-295.5 -112.5q-167 0 -279.5 112.5t-112.5 287.5zM25 1625q0 52 36.5 88.5t88.5 36.5t88.5 -36.5t36.5 -88.5t-36.5 -88.5t-88.5 -36.5t-88.5 36.5t-36.5 88.5zM250 400 q0 -75 50 -112.5t100 -37.5t100 37.5t50 112.5v600q0 75 -50 112.5t-100 37.5t-100 -37.5t-50 -112.5v-600zM525 1625q0 52 36.5 88.5t88.5 36.5t88.5 -36.5t36.5 -88.5t-36.5 -88.5t-88.5 -36.5t-88.5 36.5t-36.5 88.5z" />
<glyph unicode="&#xd7;" horiz-adv-x="800" d="M-25 175l213 525l-213 525h275l75 -190l75 190h275l-212 -525l212 -525h-275l-75 190l-75 -190h-275z" />
<glyph unicode="&#xd8;" horiz-adv-x="1000" d="M-50 0l95 204q-45 86 -45 196v600q0 175 112.5 287.5t287.5 112.5q102 0 182 -38l18 38h275l-107 -231q32 -75 32 -169v-600q0 -175 -112.5 -287.5t-295.5 -112.5q-84 0 -154 28l-13 -28h-275zM250 646l224 483q-37 21 -74 21q-50 0 -100 -37.5t-50 -112.5v-354zM346 261 q27 -11 54 -11q50 0 100 37.5t50 112.5v300z" />
<glyph unicode="&#xd9;" d="M0 400l1 1000h249v-1000q0 -75 50 -112.5t100 -37.5t100 37.5t50 112.5v999l250 2v-1001q0 -175 -112.5 -287.5t-295.5 -112.5q-167 0 -279.5 112.5t-112.5 287.5zM25 1850h300l450 -400h-300z" />
<glyph unicode="&#xda;" d="M0 400l1 1000h249v-1000q0 -75 50 -112.5t100 -37.5t100 37.5t50 112.5v999l250 2v-1001q0 -175 -112.5 -287.5t-295.5 -112.5q-167 0 -279.5 112.5t-112.5 287.5zM25 1450l450 400h300l-450 -400h-300z" />
<glyph unicode="&#xdb;" d="M0 400l1 1000h249v-1000q0 -75 50 -112.5t100 -37.5t100 37.5t50 112.5v999l250 2v-1001q0 -175 -112.5 -287.5t-295.5 -112.5q-167 0 -279.5 112.5t-112.5 287.5zM25 1450l250 400h250l250 -400h-250l-125 200l-125 -200h-250z" />
<glyph unicode="&#xdc;" d="M0 400l1 1000h249v-1000q0 -75 50 -112.5t100 -37.5t100 37.5t50 112.5v999l250 2v-1001q0 -175 -112.5 -287.5t-295.5 -112.5q-167 0 -279.5 112.5t-112.5 287.5zM25 1625q0 52 36.5 88.5t88.5 36.5t88.5 -36.5t36.5 -88.5t-36.5 -88.5t-88.5 -36.5t-88.5 36.5 t-36.5 88.5zM525 1625q0 52 36.5 88.5t88.5 36.5t88.5 -36.5t36.5 -88.5t-36.5 -88.5t-88.5 -36.5t-88.5 36.5t-36.5 88.5z" />
<glyph unicode="&#xdd;" d="M-25 1400h275l150 -365l150 365h275l-287 -700l-13 -32v-668h-250v671l-12 29zM25 1450l450 400h300l-450 -400h-300z" />
<glyph unicode="&#xde;" horiz-adv-x="975" d="M0 0v1400h250v-300h150q425 0 425 -375q0 -350 -575 -450v-275h-250zM250 525q350 25 350 175t-150 150h-200v-325z" />
<glyph unicode="&#xdf;" d="M0 1000q0 175 112.5 287.5t287.5 112.5t287.5 -112.5t112.5 -287.5v-25q0 -165 -101 -275q101 -110 101 -275v-25q0 -175 -112 -287q-111 -111 -288 -113h-50v250h50q50 0 100 37.5t50 112.5v25q0 75 -50 112.5t-100 37.5h-50v250h50q50 0 100 37.5t50 112.5v25 q0 75 -50 112.5t-100 37.5t-100 -37.5t-50 -112.5v-1000l-249 1z" />
<glyph unicode="&#xe0;" horiz-adv-x="960" d="M0 0l260 980q60 140 160 140t160 -140l260 -980h-220l-62 240h-276l-62 -240h-220zM100 1480h240l360 -320h-240zM334 440h172l-86 330z" />
<glyph unicode="&#xe1;" horiz-adv-x="960" d="M0 0l260 980q60 140 160 140t160 -140l260 -980h-220l-62 240h-276l-62 -240h-220zM120 1160l360 320h240l-360 -320h-240zM334 440h172l-86 330z" />
<glyph unicode="&#xe2;" horiz-adv-x="960" d="M0 0l260 980q60 140 160 140t160 -140l260 -980h-220l-62 240h-276l-62 -240h-220zM120 1160l200 320h200l200 -320h-200l-100 160l-100 -160h-200zM334 440h172l-86 330z" />
<glyph unicode="&#xe3;" horiz-adv-x="960" d="M-60 1160q0 140 90 230t230 90t230 -90q50 -30 90 -30t80 30t40 90h200q0 -140 -90 -230t-236 -90q-134 0 -224 90q-50 30 -90 30t-80 -30t-40 -90h-200zM0 0l260 980q60 140 160 140t160 -140l260 -980h-220l-62 240h-276l-62 -240h-220zM334 440h172l-86 330z" />
<glyph unicode="&#xe4;" horiz-adv-x="960" d="M0 0l260 980q60 140 160 140t160 -140l260 -980h-220l-62 240h-276l-62 -240h-220zM120 1300q0 42 29 71t71 29t71 -29t29 -71t-29 -71t-71 -29t-71 29t-29 71zM334 440h172l-86 330zM520 1300q0 42 29 71t71 29t71 -29t29 -71t-29 -71t-71 -29t-71 29t-29 71z" />
<glyph unicode="&#xe5;" horiz-adv-x="960" d="M0 0l260 980q60 140 160 140t160 -140l260 -980h-220l-62 240h-276l-62 -240h-220zM320 1300q0 42 29 71t71 29t71 -29t29 -71t-29 -71t-71 -29t-71 29t-29 71zM334 440h172l-86 330z" />
<glyph unicode="&#xe6;" horiz-adv-x="1280" d="M0 0l260 980q60 140 160 140t160 -140l20 -75v75q0 60 40 100t100 40h420v-200h-360v-260h220v-200h-220v-260h360v-200h-540l-62 240h-276l-62 -240h-220zM334 440h172l-86 330z" />
<glyph unicode="&#xe7;" horiz-adv-x="760" d="M0 320v480q0 140 90 230t230 90t230 -90t90 -230h-200q0 60 -40 90t-80 30t-80 -30t-40 -90v-480q0 -60 40 -90t80 -30t80 30t40 90h200q0 -140 -90 -230q-52 -52 -124 -74v-56q0 -140 -90 -230t-236 -90l6 200q40 0 80 30t40 90v51q-77 20 -136 79q-90 90 -90 230z" />
<glyph unicode="&#xe8;" horiz-adv-x="680" d="M-20 1480h240l360 -320h-240zM0 140v840q0 60 40 100t100 40h420v-200h-360v-260h220v-200h-220v-260h360v-200h-420q-60 0 -100 40t-40 100z" />
<glyph unicode="&#xe9;" horiz-adv-x="680" d="M-20 1160l360 320h240l-360 -320h-240zM0 140v840q0 60 40 100t100 40h420v-200h-360v-260h220v-200h-220v-260h360v-200h-420q-60 0 -100 40t-40 100z" />
<glyph unicode="&#xea;" horiz-adv-x="680" d="M-20 1160l200 320h200l200 -320h-200l-100 160l-100 -160h-200zM0 140v840q0 60 40 100t100 40h420v-200h-360v-260h220v-200h-220v-260h360v-200h-420q-60 0 -100 40t-40 100z" />
<glyph unicode="&#xeb;" horiz-adv-x="680" d="M-20 1300q0 42 29 71t71 29t71 -29t29 -71t-29 -71t-71 -29t-71 29t-29 71zM0 140v840q0 60 40 100t100 40h420v-200h-360v-260h220v-200h-220v-260h360v-200h-420q-60 0 -100 40t-40 100zM380 1300q0 42 29 71t71 29t71 -29t29 -71t-29 -71t-71 -29t-71 29t-29 71z" />
<glyph unicode="&#xec;" horiz-adv-x="320" d="M-200 1480h240l360 -320h-240zM0 0v1120h200v-1120h-200z" />
<glyph unicode="&#xed;" horiz-adv-x="320" d="M-200 1160l360 320h240l-360 -320h-240zM0 0v1120h200v-1120h-200z" />
<glyph unicode="&#xee;" horiz-adv-x="320" d="M-200 1160l200 320h200l200 -320h-200l-100 160l-100 -160h-200zM0 0v1120h200v-1120h-200z" />
<glyph unicode="&#xef;" horiz-adv-x="320" d="M-200 1300q0 42 29 71t71 29t71 -29t29 -71t-29 -71t-71 -29t-71 29t-29 71zM0 0v1120h200v-1120h-200zM200 1300q0 42 29 71t71 29t71 -29t29 -71t-29 -71t-71 -29t-71 29t-29 71z" />
<glyph unicode="&#xf0;" horiz-adv-x="880" d="M0 658v200h120v260h320q140 0 230 -90t90 -230v-480q0 -140 -90 -230t-236 -90h-314v660h-120zM320 198h120q40 0 80 30t40 90v480q0 60 -40 90t-80 30h-120v-60h120v-200h-120v-460z" />
<glyph unicode="&#xf1;" horiz-adv-x="860" d="M-100 1160q0 140 90 230t230 90t230 -90q50 -30 90 -30t80 30t40 90h200q0 -140 -90 -230t-236 -90q-134 0 -224 90q-50 30 -90 30t-80 -30t-40 -90h-200zM0 0v960q0 80 29.5 120t90.5 40q100 0 180 -181l240 -509v690h200v-960q0 -80 -27.5 -120t-91.5 -40 q-101 0 -161 120l-260 570v-690h-200z" />
<glyph unicode="&#xf2;" horiz-adv-x="760" d="M0 320v480q0 140 90 230t230 90t230 -90t90 -230v-480q0 -140 -90 -230t-236 -90q-134 0 -224 90t-90 230zM20 1480h240l360 -320h-240zM200 320q0 -60 40 -90t80 -30t80 30t40 90v480q0 60 -40 90t-80 30t-80 -30t-40 -90v-480z" />
<glyph unicode="&#xf3;" horiz-adv-x="760" d="M0 320v480q0 140 90 230t230 90t230 -90t90 -230v-480q0 -140 -90 -230t-236 -90q-134 0 -224 90t-90 230zM20 1160l360 320h240l-360 -320h-240zM200 320q0 -60 40 -90t80 -30t80 30t40 90v480q0 60 -40 90t-80 30t-80 -30t-40 -90v-480z" />
<glyph unicode="&#xf4;" horiz-adv-x="760" d="M0 320v480q0 140 90 230t230 90t230 -90t90 -230v-480q0 -140 -90 -230t-236 -90q-134 0 -224 90t-90 230zM20 1160l200 320h200l200 -320h-200l-100 160l-100 -160h-200zM200 320q0 -60 40 -90t80 -30t80 30t40 90v480q0 60 -40 90t-80 30t-80 -30t-40 -90v-480z" />
<glyph unicode="&#xf5;" horiz-adv-x="760" d="M-160 1160q0 140 90 230t230 90t230 -90q50 -30 90 -30t80 30t40 90h200q0 -140 -90 -230t-236 -90q-134 0 -224 90q-50 30 -90 30t-80 -30t-40 -90h-200zM0 320v480q0 140 90 230t230 90t230 -90t90 -230v-480q0 -140 -90 -230t-236 -90q-134 0 -224 90t-90 230z M200 320q0 -60 40 -90t80 -30t80 30t40 90v480q0 60 -40 90t-80 30t-80 -30t-40 -90v-480z" />
<glyph unicode="&#xf6;" horiz-adv-x="760" d="M0 320v480q0 140 90 230t230 90t230 -90t90 -230v-480q0 -140 -90 -230t-236 -90q-134 0 -224 90t-90 230zM20 1300q0 42 29 71t71 29t71 -29t29 -71t-29 -71t-71 -29t-71 29t-29 71zM200 320q0 -60 40 -90t80 -30t80 30t40 90v480q0 60 -40 90t-80 30t-80 -30t-40 -90 v-480zM420 1300q0 42 29 71t71 29t71 -29t29 -71t-29 -71t-71 -29t-71 29t-29 71z" />
<glyph unicode="&#xf7;" horiz-adv-x="850" d="M0 575v250h700v-250h-700zM225 375q0 52 36.5 88.5t88.5 36.5t88.5 -36.5t36.5 -88.5t-36.5 -88.5t-88.5 -36.5t-88.5 36.5t-36.5 88.5zM225 1025q0 52 36.5 88.5t88.5 36.5t88.5 -36.5t36.5 -88.5t-36.5 -88.5t-88.5 -36.5t-88.5 36.5t-36.5 88.5z" />
<glyph unicode="&#xf8;" horiz-adv-x="800" d="M-40 0l76 163q-36 69 -36 157v480q0 140 90 230t230 90q81 0 146 -30l14 30h220l-86 -185q26 -60 26 -135v-480q0 -140 -90 -230t-236 -90q-67 0 -123 23l-11 -23h-220zM200 517l179 386q-29 17 -59 17q-40 0 -80 -30t-40 -90v-283zM277 209q21 -9 43 -9q40 0 80 30 t40 90v240z" />
<glyph unicode="&#xf9;" horiz-adv-x="760" d="M0 320l1 800h199v-800q0 -60 40 -90t80 -30t80 30t40 90v799l200 2v-801q0 -140 -90 -230t-236 -90q-134 0 -224 90t-90 230zM20 1480h240l360 -320h-240z" />
<glyph unicode="&#xfa;" horiz-adv-x="760" d="M0 320l1 800h199v-800q0 -60 40 -90t80 -30t80 30t40 90v799l200 2v-801q0 -140 -90 -230t-236 -90q-134 0 -224 90t-90 230zM20 1160l360 320h240l-360 -320h-240z" />
<glyph unicode="&#xfb;" horiz-adv-x="760" d="M0 320l1 800h199v-800q0 -60 40 -90t80 -30t80 30t40 90v799l200 2v-801q0 -140 -90 -230t-236 -90q-134 0 -224 90t-90 230zM20 1160l200 320h200l200 -320h-200l-100 160l-100 -160h-200z" />
<glyph unicode="&#xfc;" horiz-adv-x="760" d="M0 320l1 800h199v-800q0 -60 40 -90t80 -30t80 30t40 90v799l200 2v-801q0 -140 -90 -230t-236 -90q-134 0 -224 90t-90 230zM20 1300q0 42 29 71t71 29t71 -29t29 -71t-29 -71t-71 -29t-71 29t-29 71zM420 1300q0 42 29 71t71 29t71 -29t29 -71t-29 -71t-71 -29t-71 29 t-29 71z" />
<glyph unicode="&#xfd;" horiz-adv-x="760" d="M-20 1120h220l120 -292l120 292h220l-230 -560l-10 -26v-534h-200v537l-10 23zM20 1160l360 320h240l-360 -320h-240z" />
<glyph unicode="&#xfe;" horiz-adv-x="780" d="M0 0v1120h200v-240h120q340 0 340 -300q0 -280 -460 -360v-220h-200zM200 420q280 20 280 140t-120 120h-160v-260z" />
<glyph unicode="&#xff;" horiz-adv-x="760" d="M-20 1120h220l120 -292l120 292h220l-230 -560l-10 -26v-534h-200v537l-10 23zM20 1300q0 42 29 71t71 29t71 -29t29 -71t-29 -71t-71 -29t-71 29t-29 71zM420 1300q0 42 29 71t71 29t71 -29t29 -71t-29 -71t-71 -29t-71 29t-29 71z" />
<glyph unicode="&#x2c6;" horiz-adv-x="900" d="M0 1450l250 400h250l250 -400h-250l-125 200l-125 -200h-250z" />
<glyph unicode="&#x2dc;" horiz-adv-x="1350" d="M0 1450q0 175 112.5 287.5t287.5 112.5t288 -112q62 -38 112 -38t100 37.5t50 112.5h250q0 -175 -112.5 -287.5t-295.5 -112.5q-167 0 -279 113q-63 37 -113 37t-100 -37.5t-50 -112.5h-250z" />
<glyph unicode="&#x2000;" horiz-adv-x="925" />
<glyph unicode="&#x2001;" horiz-adv-x="1850" />
<glyph unicode="&#x2002;" horiz-adv-x="925" />
<glyph unicode="&#x2003;" horiz-adv-x="1850" />
<glyph unicode="&#x2004;" horiz-adv-x="616" />
<glyph unicode="&#x2005;" horiz-adv-x="462" />
<glyph unicode="&#x2006;" horiz-adv-x="308" />
<glyph unicode="&#x2007;" horiz-adv-x="308" />
<glyph unicode="&#x2008;" horiz-adv-x="231" />
<glyph unicode="&#x2009;" horiz-adv-x="370" />
<glyph unicode="&#x200a;" horiz-adv-x="102" />
<glyph unicode="&#x2010;" horiz-adv-x="850" d="M0 575v250h700v-250h-700z" />
<glyph unicode="&#x2011;" horiz-adv-x="850" d="M0 575v250h700v-250h-700z" />
<glyph unicode="&#x2012;" horiz-adv-x="850" d="M0 575v250h700v-250h-700z" />
<glyph unicode="&#x2013;" horiz-adv-x="1108" d="M56 419v120h996v-120h-996z" />
<glyph unicode="&#x2014;" horiz-adv-x="2048" d="M0 419v120h2048v-120h-2048z" />
<glyph unicode="&#x2018;" horiz-adv-x="400" d="M0 1025v250q0 52 36.5 88.5t88.5 36.5t88.5 -36.5t36.5 -88.5v-250q0 -52 -36.5 -88.5t-88.5 -36.5t-88.5 36.5t-36.5 88.5z" />
<glyph unicode="&#x2019;" horiz-adv-x="400" d="M0 1025v250q0 52 36.5 88.5t88.5 36.5t88.5 -36.5t36.5 -88.5v-250q0 -52 -36.5 -88.5t-88.5 -36.5t-88.5 36.5t-36.5 88.5z" />
<glyph unicode="&#x201a;" horiz-adv-x="400" d="M0 125q0 52 36.5 88.5t88.5 36.5t88.5 -36.5t36.5 -88.5v-250q0 -52 -36.5 -88.5t-88.5 -36.5t-88.5 36.5t-36.5 88.5v250z" />
<glyph unicode="&#x201c;" horiz-adv-x="750" d="M0 1025v250q0 52 36.5 88.5t88.5 36.5t88.5 -36.5t36.5 -88.5v-250q0 -52 -36.5 -88.5t-88.5 -36.5t-88.5 36.5t-36.5 88.5zM350 1025v250q0 52 36.5 88.5t88.5 36.5t88.5 -36.5t36.5 -88.5v-250q0 -52 -36.5 -88.5t-88.5 -36.5t-88.5 36.5t-36.5 88.5z" />
<glyph unicode="&#x201d;" horiz-adv-x="750" d="M0 1025v250q0 52 36.5 88.5t88.5 36.5t88.5 -36.5t36.5 -88.5v-250q0 -52 -36.5 -88.5t-88.5 -36.5t-88.5 36.5t-36.5 88.5zM350 1025v250q0 52 36.5 88.5t88.5 36.5t88.5 -36.5t36.5 -88.5v-250q0 -52 -36.5 -88.5t-88.5 -36.5t-88.5 36.5t-36.5 88.5z" />
<glyph unicode="&#x201e;" horiz-adv-x="750" d="M0 125q0 52 36.5 88.5t88.5 36.5t88.5 -36.5t36.5 -88.5v-250q0 -52 -36.5 -88.5t-88.5 -36.5t-88.5 36.5t-36.5 88.5v250zM350 125q0 52 36.5 88.5t88.5 36.5t88.5 -36.5t36.5 -88.5v-250q0 -52 -36.5 -88.5t-88.5 -36.5t-88.5 36.5t-36.5 88.5v250z" />
<glyph unicode="&#x2022;" horiz-adv-x="1024" d="M216 718q0 123 87 209t210 86q122 0 208.5 -86.5t86.5 -208.5t-87.5 -209.5t-209.5 -87.5q-123 0 -209 87t-86 210z" />
<glyph unicode="&#x2026;" horiz-adv-x="1100" d="M0 125q0 52 36.5 88.5t88.5 36.5t88.5 -36.5t36.5 -88.5t-36.5 -88.5t-88.5 -36.5t-88.5 36.5t-36.5 88.5zM350 125q0 52 36.5 88.5t88.5 36.5t88.5 -36.5t36.5 -88.5t-36.5 -88.5t-88.5 -36.5t-88.5 36.5t-36.5 88.5zM700 125q0 52 36.5 88.5t88.5 36.5t88.5 -36.5 t36.5 -88.5t-36.5 -88.5t-88.5 -36.5t-88.5 36.5t-36.5 88.5z" />
<glyph unicode="&#x202f;" horiz-adv-x="370" />
<glyph unicode="&#x2039;" horiz-adv-x="850" d="M0 550v300l700 275v-250l-445 -175l445 -175v-250z" />
<glyph unicode="&#x203a;" horiz-adv-x="850" d="M0 275v250l445 175l-445 175v250l700 -275v-300z" />
<glyph unicode="&#x205f;" horiz-adv-x="462" />
<glyph unicode="&#x20ac;" horiz-adv-x="1100" d="M0 400v250h150v100h-150v250h150q0 175 112.5 287.5t287.5 112.5t287.5 -112.5t112.5 -287.5h-250q0 75 -50 112.5t-100 37.5t-100 -37.5t-50 -112.5h150v-250h-150v-100h150v-250h-150q0 -75 50 -112.5t100 -37.5t100 37.5t50 112.5h250q0 -175 -112.5 -287.5 t-295.5 -112.5q-167 0 -279.5 112.5t-112.5 287.5h-150z" />
<glyph unicode="&#x2122;" horiz-adv-x="1175" d="M0 1275v125h400v-125h-137v-575h-125v575h-138zM450 700v600q0 50 25 75t63 25q75 0 100 -100l100 -381l100 381q25 100 100 100q37 0 62 -25t25 -75v-600h-125v323l-62 -235q-38 -88 -100 -88q-63 0 -100 88l-63 235v-323h-125z" />
<glyph unicode="&#xe000;" horiz-adv-x="1190" d="M0 0v1190h1190v-1190h-1190z" />
</font>
</defs>
</svg>
